Early Man 2018 READINFO HDRip XviD AC3 L Torrent Free Download

Seeders : 698   &   Leechers : 412      30-04-2018 (7 months)
Early Man 2018 READINFO HDRip XviD AC3 L Torrent Download
Added: ago by LifeLongg ***** in Movies   1,010.9 MB   Hits : 122
Info Hash: ABF25605372AA54BD435FFCE9222B0E7C84935ED Download
Early Man 2018 READINFO HDRip XviD AC3 L Torrent Download

Anonymous and Direct Download movies , software , shows...

Fast Safe Anonymous
movies, software, shows...
Early Man
Animation /Adventure /Comedy /Family /Fantasy /Sport  .   89 min   6.1/10
Director : Nick Park  
Tags: Early  Man  2018  READINFO  HDRip  XviD  

Released:
16 Feb 2018
Set at the dawn of time, when prehistoric creatures and woolly mammoths roamed the earth, Early Man tells the story of Dug, along with sidekick Hognob as they unite his tribe against a mighty enemy Lord Nooth and his Bronze Age City to save their home.

Torrent Description





******************************Thumbnail:**********************



******************************Screenshots:********************

Screenshot 1

Screenshot 2

Screenshot 3

Screenshot 4

Screenshot 5

Screenshot 6

Screenshot 7

Screenshot 8

Screenshot 9

Screenshot 0

**************************************************************

Note :Clear Cam audio

Complete name : Early.Man.2018.READINFO.HDRip.XviD.AC3.LLG.mp4
Format : MPEG-4
Format profile : Base Media
Codec ID : isom (isom/iso2/avc1/mp41)
File size : 988 MiB
Duration : 1 h 24 min
Overall bit rate : 1 626 kb/s
Writing application : Lavf57.56.101

Video
ID : 1
Format : AVC
Format/Info : Advanced Video Codec
Format profile : [email protected]
Format settings : CABAC / 4 Ref Frames
Format settings, CABAC : Yes
Format settings, RefFrames : 4 frames
Codec ID : avc1
Codec ID/Info : Advanced Video Coding
Duration : 1 h 24 min
Bit rate : 1 500 kb/s
Width : 720 pixels
Height : 384 pixels
Display aspect ratio : 1.85:1
Frame rate mode : Constant
Frame rate : 29.970 (29970/1000) FPS
Color space : YUV
Chroma subsampling : 4:2:0
Bit depth : 8 bits
Scan type : Progressive
Bits/(Pixel*Frame) : 0.181
Stream size : 908 MiB (92%)

Audio
ID : 2
Format : AC-3
Format/Info : Audio Coding 3
Codec ID : ac-3
Duration : 1 h 24 min
Bit rate mode : Constant
Bit rate : 128 kb/s
Channel(s) : 2 channels
Channel positions : Front: L R
Sampling rate : 48.0 kHz
Frame rate : 31.250 FPS (1536 SPF)
Bit depth : 16 bits
Compression mode : Lossy
Stream size : 77.7 MiB (8%)
Title : ac3
Service kind : Complete Main
Default : Yes
Alternate group : 1


Bits/(Pixel*Frame) : 0.091
Stream size : 1.56 GiB (85%)


Audio
ID : 2
Format : AC-3
Format/Info : Audio Coding 3
Codec ID : ac-3
Duration : 2 h 28 min
Bit rate mode : Constant
Bit rate : 256 kb/s
Channel(s) : 6 channels
Channel positions : Front: L C R, Side: L R, LFE
Sampling rate : 48.0 kHz
Frame rate : 31.250 FPS (1536 SPF)
Bit depth : 16 bits
Compression mode : Lossy
Stream size : 272 MiB (14%)
Language : English
Service kind : Complete Main
Default : Yes
Alternate group : 1




Sharing Widget


No Comments For This Torrent . Be The First to Comment

You must Login to Comment . Click Here to Login

Menu 1

Some content in menu 1.

Early Man 2018 READINFO HDRip XviD AC3 LLG (Size: 1,010.9 MB)
  Early Man 2018 READINFO HDRip XviD AC3 LLG 1,010.9 MB
tracker name
udp://tracker.leechers-paradise.org:6969/announce
udp://zer0day.ch:1337/announce
udp://open.demonii.com:1337/announce
udp://tracker.coppersurfer.tk:6969/announce
udp://exodus.desync.com:6969/announce
µTorrent compatible trackers list

Relative Torrents

Torrent Name Size Age SEED LEECH
Doses of Horror 2018 1080p AMZN WEBRip DP2 0 x264-CM
Posted by    Trige   in   Movies
3.6 GB 16 minutes 892 721
The Festival (2018)1080p AVC DTS-HDMA 5 -L2S
Posted by    TheDeSTroYER   in   Movies
6.1 GB 22 minutes 900 238
A Snow White Christmas 2018 720p HDTV X24 Solar
Posted by    Solarwinds   in   Movies
1.0 GB 28 minutes 862 524
A Christmas Village 2018 720p Web X264 -SHADOW[TGx]
Posted by    mazemaze16   in   Movies
1.1 GB 37 minutes 930 932
Life-Size 2 (2018) WEBRip x264 - SHADOW[Gx]
Posted by    mazemaze16   in   Movies
685.6 MB 43 minutes 735 649