Mortal Engines 2018 Movies HD Cam x264 C Torrent Free Download

Seeders : 416   &   Leechers : 204      07-12-2018 (5 days)
Mortal Engines 2018 Movies HD Cam x264 C Torrent Download
Added: ago by nehalpuja ***** in Movies   705.4 MB   Hits : 16
Info Hash: 2F50FB240C48B4198B23EDB8175C09066E2A7E66 Download
Mortal Engines 2018 Movies HD Cam x264 C Torrent Download

Anonymous and Direct Download movies , software , shows...

Fast Safe Anonymous
movies, software, shows...
Mortal Engines
Action /Adventure /Fantasy /Sci-Fi /Thriller  .   N/A   N/A/10
Director : Christian Rivers  
Tags: Mortal  Engines  2018  Movies  HD  Cam  

Released:
14 Dec 2018
A mysterious young woman named Hester Shaw joins forces with Anna Fang, a dangerous outlaw with a bounty on her head, and Tom Natsworthy, an outcast from London, to lead a rebellion against a giant predator city on wheels.

Torrent Description



Mortal Engines 2018 Movies HD Cam x264 Clean Audio New Source with Sample ☻rDX☻
===============================================================================================

SCREEN SHOTS:



or

http://iphonehosting.eu/2018/11/b/best/1.html

File size : 697 MiB
Duration : 1 h 57 min
Overall bit rate mode : Constant
Overall bit rate : 833 kb/s
Movie name : Mortal Engines 2018 Movies HD Cam x264 Clean Audio New Source ☻rDX☻

Video
ID : 2
Format : AVC
Format/Info : Advanced Video Codec
Format profile : [email protected]
Format settings, CABAC : Yes
Format settings, ReFrames : 2 frames
Format settings, GOP : M=1, N=12
Codec ID : V_MPEG4/ISO/AVC
Duration : 1 h 57 min
Bit rate mode : Constant
Bit rate : 770 kb/s
Width : 720 pixels
Height : 280 pixels
Display aspect ratio : 2.571
Frame rate mode : Constant
Frame rate : 29.970 (30000/1001) FPS
Color space : YUV
Chroma subsampling : 4:2:0
Bit depth : 8 bits
Scan type : Progressive
Bits/(Pixel*Frame) : 0.127
Stream size : 630 MiB (90%)
Title : ☻rDX☻
Default : Yes
Forced : No

Audio
ID : 1
Format : AC-3
Format/Info : Audio Coding 3
Mode extension : CM (complete main)
Format settings, Endianness : Big
Codec ID : A_AC3
Duration : 1 h 57 min
Bit rate mode : Constant
Bit rate : 64.0 kb/s
Channel(s) : 2 channels
Channel positions : Front: L R
Sampling rate : 44.1 kHz
Frame rate : 28.711 FPS (1536 spf)
Bit depth : 16 bits
Compression mode : Lossy
Stream size : 53.6 MiB (8%)
Title : ☻rDX☻
Default : Yes
Forced : No

http://www.imdb.com/title/tt1571234




Sharing Widget


No Comments For This Torrent . Be The First to Comment

You must Login to Comment . Click Here to Login

Menu 1

Some content in menu 1.

Mortal Engines 2018 Movies HD Cam x264 Clean Audio New Source with Sam (Size: 705.4 MB)
  Mortal Engines 2018 Movies HD Cam x264 Clean Audio New Source with Sam 705.4 MB
tracker name
udp://tracker.leechers-paradise.org:6969/announce
udp://zer0day.ch:1337/announce
udp://open.demonii.com:1337/announce
udp://tracker.coppersurfer.tk:6969/announce
udp://exodus.desync.com:6969/announce
µTorrent compatible trackers list

Relative Torrents

Torrent Name Size Age SEED LEECH
NCIS New Orleans S05E10 Tick Tock 720p AZN WEB-DL DDP5 1 H 264-NTb[TGx]
Posted by    mazemaze16   in   TV
1.3 GB 2 minutes 211 597
NCIS New Orleans S05E10 Tick Tock 1080p MZN WEB-DL DDP5 1 H 264-NTb[TGx]
Posted by    mazemaze16   in   TV
3.3 GB 2 minutes 431 893
Manmarziyaan 2018 Hindi 1080p WEB-DL x26 [2 2GB] [MP4]
Posted by    TorntCounter   in   Movies
2.3 GB 5 minutes 266 235
Manmarziyaan 2018 Hindi 720p WEB-DL x264[1 2GB] [MP4]
Posted by    TorntCounter   in   Movies
1.2 GB 5 minutes 943 529
Panic The Untold Story of the 2008 Finanial Crisis 2018 1080p AMZN WEBRip DDP2
Posted by    Trige   in   Movies
3.8 GB 5 minutes 366 702