Mowgli (2018) 1080p WEB-DL Dual Audio OR Torrent Free Download

Seeders : 151   &   Leechers : 119      07-12-2018 (5 days)
Mowgli (2018) 1080p WEB-DL Dual Audio OR Torrent Download
Added: ago by Saransh ***** in Movies   2.4 GB   Hits : 72
Info Hash: D2B114A6F00507BB9B0F6339510A01AFC21C9E99 Download
Mowgli (2018) 1080p WEB-DL Dual Audio OR Torrent Download

Anonymous and Direct Download movies , software , shows...

Fast Safe Anonymous
movies, software, shows...
Mowgli
Adventure /Drama  .   N/A   N/A/10
Director : Andy Serkis  
Tags: Mowgli  (2018)  1080p  WEB-DL  Dual  Audio  

Released:
19 Oct 2018
A human child raised by wolves must face off against a menacing tiger named Shere Khan, as well as his own origins.

Torrent Description



Mowgli (2018) 1080p WEB-DL Dual Audio ORG [Hindi DDP5.1 + English DD5.1] MSubs [Telegram @Movieznm]



Format                      : Matroska
Format version              : Version 4
File size                   : 2.44 GiB
Duration                    : 1 h 44 min
Overall bit rate            : 3 326 kb/s
Movie name                  : Mowgli (2018) 1080p WEB-DL Dual Audio ORG [Hindi DDP5.1 + English DD5.1] MSubs ~ Saransh
Encoded date                : UTC 2018-12-07 12:51:10
Writing application         : mkvmerge v27.0.0 ('Metropolis') 64-bit
Writing library             : libebml v1.3.6 + libmatroska v1.4.9

Video
ID                          : 1
Format                      : AVC
Format/Info                 : Advanced Video Codec
Format profile              : [email protected]
Format settings             : CABAC / 4 Ref Frames
Format settings, CABAC      : Yes
Format settings, ReFrames   : 4 frames
Codec ID                    : V_MPEG4/ISO/AVC
Duration                    : 1 h 44 min
Bit rate                    : 2 342 kb/s
Width                       : 1 912 pixels
Height                      : 800 pixels
Display aspect ratio        : 2.40:1
Frame rate mode             : Constant
Frame rate                  : 23.976 (24000/1001) FPS
Color space                 : YUV
Chroma subsampling          : 4:2:0
Bit depth                   : 8 bits
Scan type                   : Progressive
Bits/(Pixel*Frame)          : 0.064
Stream size                 : 1.68 GiB (69%)
Title                       : Mowgli (2018) 1080p WEB-DL Dual Audio ORG [Hindi DDP5.1 + English DD5.1] MSubs ~ Saransh
Writing library             : x264 core 155 r2901 7d0ff22
Encoding settings           : cabac=1 / ref=3 / deblock=1:0:0 / analyse=0x3:0x113 / me=hex / subme=7 / psy=1 / psy_rd=1.00:0.00 / mixed_ref=1 / me_range=16 / chroma_me=1 / trellis=1 / 8x8dct=1 / cqm=0 / deadzone=21,11 / fast_pskip=1 / chroma_qp_offset=-2 / threads=16 / lookahead_threads=2 / sliced_threads=0 / nr=0 / decimate=1 / interlaced=0 / bluray_compat=0 / constrained_intra=0 / bframes=3 / b_pyramid=2 / b_adapt=1 / b_bias=0 / direct=1 / weightb=1 / open_gop=0 / weightp=2 / keyint=240 / keyint_min=23 / scenecut=40 / intra_refresh=0 / rc_lookahead=40 / rc=abr / mbtree=1 / bitrate=2342 / ratetol=1.0 / qcomp=0.60 / qpmin=0 / qpmax=69 / qpstep=4 / ip_ratio=1.40 / aq=1:1.00
Language                    : English
Default                     : Yes
Forced                      : No

Audio #1
ID                          : 2
Format                      : E-AC-3
Format/Info                 : Enhanced AC-3
Commercial name             : Dolby Digital Plus
Codec ID                    : A_EAC3
Duration                    : 1 h 44 min
Bit rate mode               : Constant
Bit rate                    : 640 kb/s
Channel(s)                  : 6 channels
Channel layout              : L R C LFE Ls Rs
Sampling rate               : 48.0 kHz
Frame rate                  : 31.250 FPS (1536 SPF)
Compression mode            : Lossy
Stream size                 : 480 MiB (19%)
Title                       : Hindi DDP5.1 - t.me/Movieznm
Language                    : Hindi
Service kind                : Complete Main
Default                     : Yes
Forced                      : Yes

Audio #2
ID                          : 3
Format                      : AC-3
Format/Info                 : Audio Coding 3
Commercial name             : Dolby Digital
Codec ID                    : A_AC3
Duration                    : 1 h 44 min
Bit rate mode               : Constant
Bit rate                    : 384 kb/s
Channel(s)                  : 6 channels
Channel layout              : L R C LFE Ls Rs
Sampling rate               : 48.0 kHz
Frame rate                  : 31.250 FPS (1536 SPF)
Bit depth                   : 16 bits
Compression mode            : Lossy
Stream size                 : 288 MiB (12%)
Title                       : ENG DD5.1 - t.me/Movieznm
Language                    : English
Service kind                : Complete Main
Default                     : No
Forced                      : No

Text #1
ID                          : 4
Format                      : UTF-8
Codec ID                    : S_TEXT/UTF8
Codec ID/Info               : UTF-8 Plain Text
Duration                    : 1 h 34 min
Bit rate                    : 24 b/s
Count of elements           : 706
Stream size                 : 17.1 KiB (0%)
Title                       : ESubs - t.me/Movieznm
Language                    : English
Default                     : Yes
Forced                      : Yes

Text #2
ID                          : 5
Format                      : UTF-8
Codec ID                    : S_TEXT/UTF8
Codec ID/Info               : UTF-8 Plain Text
Duration                    : 1 h 35 min
Bit rate                    : 61 b/s
Count of elements           : 690
Stream size                 : 43.2 KiB (0%)
Title                       : HSubs - t.me/Movieznm
Language                    : Hindi
Default                     : No
Forced                      : No


SCREENS






Sharing Widget


No Comments For This Torrent . Be The First to Comment

You must Login to Comment . Click Here to Login

Menu 1

Some content in menu 1.

Mowgli (2018) 1080p WEB-DL Dual Audio ORG [Hindi DDP5 1 + English DD5 (Size: 2.4 GB)
  Mowgli (2018) 1080p WEB-DL Dual Audio ORG [Hindi DDP5 1 + English DD5 2.4 GB
tracker name
udp://tracker.leechers-paradise.org:6969/announce
udp://zer0day.ch:1337/announce
udp://open.demonii.com:1337/announce
udp://tracker.coppersurfer.tk:6969/announce
udp://exodus.desync.com:6969/announce
µTorrent compatible trackers list

Relative Torrents

Torrent Name Size Age SEED LEECH
NCIS S16E10 What Child Is This 720p AMZNWEB-DL DDP5 1 H 264-NTb[TGx]
Posted by    mazemaze16   in   TV
1.1 GB 1 minute 294 206
NCIS New Orleans S05E10 Tick Tock 720p AZN WEB-DL DDP5 1 H 264-NTb[TGx]
Posted by    mazemaze16   in   TV
1.3 GB 1 minute 211 597
The Rookie S01E08 Time of Death 1080p AMN WEB-DL DDP5 1 H 264-NTb[TGx]
Posted by    mazemaze16   in   TV
1.7 GB 1 minute 348 424
NCIS New Orleans S05E10 Tick Tock 1080p MZN WEB-DL DDP5 1 H 264-NTb[TGx]
Posted by    mazemaze16   in   TV
3.3 GB 1 minute 431 893
The Rookie S01E08 Time of Death 720p AMZ WEB-DL DDP5 1 H 264-NTb [eztv]
Posted by    EZTVag   in   TV
656.1 MB 1 minute 932 258