Mowgli Legend of the Jungle (2018) Hindi Torrent Free Download

Seeders : 620   &   Leechers : 338      07-12-2018 (5 days)
Mowgli Legend of the Jungle (2018) Hindi Torrent Download
Added: ago by TheFighter ***** in Movies   1.3 GB   Hits : 4118
Info Hash: AC5D42863BFD204CA039EE30577CEEBA1D081AF4 Download
Mowgli Legend of the Jungle (2018) Hindi Torrent Download

Anonymous and Direct Download movies , software , shows...

Fast Safe Anonymous
movies, software, shows...

Torrent Description









Mowgli Legend of the Jungle (2018) Hindi 720p WEB-Rip x264 AAC DD5.1 - MSUBS ~ Ranvijay

Thanks To Hammer For Hindi Audio

Buy RDP Online




Format : Matroska
Format version : Version 4 / Version 2
File size : 1.26 GiB
Duration : 1 h 44 min
Overall bit rate : 1 722 kb/s
Movie name : Mowgli Legend of the Jungle (2018) Hindi 720p WEB-Rip x264 AAC DD5.1 - MSUBS ~ Ranvijay

Video
ID : 1
Format : AVC
Format/Info : Advanced Video Codec
Duration : 1 h 44 min
Bit rate : 1 500 kb/s
Width : 1 280 pixels
Height : 536 pixels
Display aspect ratio : 2.40:1
Frame rate mode : Constant
Frame rate : 23.976 (24000/1001) FPS
Color space : YUV
Chroma subsampling : 4:2:0
Bit depth : 8 bits
Scan type : Progressive
Bits/(Pixel*Frame) : 0.091
Stream size : 1.10 GiB (87%)
Title : ~Ranvijay~

Audio
ID : 2
Format : AAC
Format/Info : Advanced Audio Codec
Format profile : LC
Codec ID : A_AAC-2
Duration : 1 h 44 min
Bit rate : 220 kb/s
Channel(s) : 6 channels
Channel positions : Front: L C R, Side: L R, LFE
Sampling rate : 48.0 kHz
Frame rate : 46.875 FPS (1024 SPF)
Compression mode : Lossy
Delay relative to video : 9 ms
Stream size : 165 MiB (13%)
Title : ~Ranvijay~
Language : Hindi
Default : Yes
Forced : Yes

Text #1
ID : 3
Format : UTF-8
Codec ID : S_TEXT/UTF8
Codec ID/Info : UTF-8 Plain Text
Duration : 7 min 50 s
Bit rate : 4 b/s
Count of elements : 11
Stream size : 251 Bytes (0%)
Title : English [Forced]
Language : English
Default : No
Forced : No

Text #2
ID : 4
Format : UTF-8
Codec ID : S_TEXT/UTF8
Codec ID/Info : UTF-8 Plain Text
Duration : 1 h 34 min
Bit rate : 24 b/s
Count of elements : 706
Stream size : 17.3 KiB (0%)
Title : English [Full]
Language : English
Default : Yes
Forced : Yes

Text #3
ID : 5
Format : UTF-8
Codec ID : S_TEXT/UTF8
Codec ID/Info : UTF-8 Plain Text
Duration : 1 h 43 min
Bit rate : 38 b/s
Count of elements : 1262
Stream size : 28.9 KiB (0%)
Title : English [SDH]
Language : English
Default : No
Forced : No

Text #4
ID : 6
Format : UTF-8
Codec ID : S_TEXT/UTF8
Codec ID/Info : UTF-8 Plain Text
Duration : 7 min 59 s
Bit rate : 3 b/s
Count of elements : 2
Stream size : 184 Bytes (0%)
Title : Hindi [Forced]
Language : Hindi
Default : No
Forced : Yes

Text #5
ID : 7
Format : UTF-8
Codec ID : S_TEXT/UTF8
Codec ID/Info : UTF-8 Plain Text
Duration : 1 h 43 min
Bit rate : 57 b/s
Count of elements : 704
Stream size : 43.3 KiB (0%)
Title : Hindi [Full]
Language : Hindi
Default : No
Forced : No












Don't walk as you are king, walk as you don't care who the king is....!!

[/b]





Sharing Widget


No Comments For This Torrent . Be The First to Comment

You must Login to Comment . Click Here to Login

Menu 1

Some content in menu 1.

Mowgli Legend of the Jungle (2018) Hindi 720p WEB-Rip x264 AAC DD5 1 - (Size: 1.3 GB)
  Mowgli Legend of the Jungle (2018) Hindi 720p WEB-Rip x264 AAC DD5 1 - 1.3 GB
tracker name
udp://tracker.leechers-paradise.org:6969/announce
udp://zer0day.ch:1337/announce
udp://open.demonii.com:1337/announce
udp://tracker.coppersurfer.tk:6969/announce
udp://exodus.desync.com:6969/announce
µTorrent compatible trackers list

Relative Torrents

Torrent Name Size Age SEED LEECH
FBI S01E10 The Armorers Faith 1080p AMZNWEBRip DDP5 1 x264-NTb
Posted by    Trige   in   TV
2.1 GB 47 seconds 615 996
NCIS S16E10 What Child Is This 720p AMZNWEB-DL DDP5 1 H 264-NTb[TGx]
Posted by    mazemaze16   in   TV
1.1 GB 5 minutes 294 206
NCIS New Orleans S05E10 Tick Tock 720p AZN WEB-DL DDP5 1 H 264-NTb[TGx]
Posted by    mazemaze16   in   TV
1.3 GB 5 minutes 211 597
The Rookie S01E08 Time of Death 1080p AMN WEB-DL DDP5 1 H 264-NTb[TGx]
Posted by    mazemaze16   in   TV
1.7 GB 5 minutes 348 424
NCIS New Orleans S05E10 Tick Tock 1080p MZN WEB-DL DDP5 1 H 264-NTb[TGx]
Posted by    mazemaze16   in   TV
3.3 GB 5 minutes 431 893